GHANA HACKERS
WELCOME TO YOUR WORLD OF FUN

Vamp U 2013 UNRATED WEBRip XviD Ac3 Feel-Free

Go down

Vamp U 2013 UNRATED WEBRip XviD Ac3 Feel-Free

Post by ADMIN on Sun Feb 17, 2013 12:19 am






[You must be registered and logged in to see this link.]

Format : AVI
Format/Info : Audio Video Interleave
File size : 1.11 GiB
Duration : 1h 35mn
Overall bit rate : 1 652 Kbps
Writing application : VirtualDubMod 1.5.10.2 (build 2540/release)
Writing library : VirtualDubMod build 2540/release

Video
ID : 0
Format : MPEG-4 Visual
Format profile : Advanced Simple@L5
Format settings, BVOP : 1
Format settings, QPel : No
Format settings, GMC : No warppoints
Format settings, Matrix : Default (H.263)
Codec ID : XVID
Codec ID/Hint : XviD
Duration : 1h 35mn
Bit rate : 1 259 Kbps
Width : 640 pixels
Height : 360 pixels
Display aspect ratio : 16:9
Frame rate : 23.976 fps
Color space : YUV
Chroma subsampling : 4:2:0
Bit depth : 8 bits
Scan type : Progressive
Compression mode : Lossy
Bits/(Pixel*Frame) : 0.228
Stream size : 864 MiB (76%)
Writing library : XviD 1.2.1 (UTC 2008-12-04)

Audio
ID : 1
Format : AC-3
Format/Info : Audio Coding 3
Mode extension : CM (complete main)
Codec ID : 2000
Duration : 1h 35mn
Bit rate mode : Constant
Bit rate : 384 Kbps
Channel(s) : 6 channels
Channel positions : Front: L C R, Side: L R, LFE
Sampling rate : 48.0 KHz
Bit depth : 16 bits
Compression mode : Lossy
Stream size : 264 MiB (23%)
Alignment : Aligned on interleaves
Interleave, duration : 42 ms (1.00 video frame)
Interleave, preload duration : 512 ms







SINGLE LINK
[You must be registered and logged in to see this link.]

[You must be registered and logged in to see this link.]


1GB LINK
[You must be registered and logged in to see this link.]
[You must be registered and logged in to see this link.]


[You must be registered and logged in to see this link.]
[You must be registered and logged in to see this link.]


[You must be registered and logged in to see this link.]
[You must be registered and logged in to see this link.]


[You must be registered and logged in to see this link.]
[You must be registered and logged in to see this link.]

avatar
ADMIN
Admin

Posts : 118
Join date : 2012-11-23
Age : 28
Location : BURMA CAMP

View user profile http://ghhackers.4rumer.com

Back to top Go down

Back to top

- Similar topics

 
Permissions in this forum:
You cannot reply to topics in this forum