GHANA HACKERS
WELCOME TO YOUR WORLD OF FUN

Border Run 2012 BRRip XviD Ac3 Feel-Free

Go down

Border Run 2012 BRRip XviD Ac3 Feel-Free

Post by ADMIN on Sun Feb 17, 2013 12:25 am





Code:
http://www.imdb.com/title/tt2069955/
Source:720p.BluRay.x264-Japhson Thanks
Encoder:Tony


Format                                  : AVI
Format/Info                              : Audio Video Interleave
File size                                : 987 MiB
Duration                                : 1h 36mn
Overall bit rate                        : 1 432 Kbps
Writing application                      : VirtualDubMod 1.5.10.2 (build 2540/release)
Writing library                          : VirtualDubMod build 2540/release

Video
ID                                      : 0
Format                                  : MPEG-4 Visual
Format profile                          : Advanced Simple@L5
Format settings, BVOP                    : 1
Format settings, QPel                    : No
Format settings, GMC                    : No warppoints
Format settings, Matrix                  : Default (H.263)
Codec ID                                : XVID
Codec ID/Hint                            : XviD
Duration                                : 1h 36mn
Bit rate                                : 1 039 Kbps
Width                                    : 640 pixels
Height                                  : 272 pixels
Display aspect ratio                    : 2.35:1
Frame rate                              : 23.976 fps
Color space                              : YUV
Chroma subsampling                      : 4:2:0
Bit depth                                : 8 bits
Scan type                                : Progressive
Compression mode                        : Lossy
Bits/(Pixel*Frame)                      : 0.249
Stream size                              : 716 MiB (73%)
Writing library                          : XviD 1.2.1 (UTC 2008-12-04)

Audio
ID                                      : 1
Format                                  : AC-3
Format/Info                              : Audio Coding 3
Mode extension                          : CM (complete main)
Codec ID                                : 2000
Duration                                : 1h 36mn
Bit rate mode                            : Constant
Bit rate                                : 384 Kbps
Channel(s)                              : 6 channels
Channel positions                        : Front: L C R, Side: L R, LFE
Sampling rate                            : 48.0 KHz
Bit depth                                : 16 bits
Compression mode                        : Lossy
Stream size                              : 265 MiB (27%)
Alignment                                : Aligned on interleaves
Interleave, duration                    : 42 ms (1.00 video frame)
Interleave, preload duration            : 512 ms







Code:

SINGLE LINK
http://rapidgator.net/file/77444656/Border.Run.2012.BRRip.XviD.Ac3.Feel-Free.avi.html


http://uploaded.net/file/5skd8ed1/Border.Run.2012.BRRip.XviD.Ac3.Feel-Free.avi


http://www.putlocker.com/file/34934873A1668979


http://BillionUploads.com/vmui8ldkw2h5

avatar
ADMIN
Admin

Posts : 118
Join date : 2012-11-23
Age : 28
Location : BURMA CAMP

View user profile http://ghhackers.4rumer.com

Back to top Go down

Back to top

- Similar topics

 
Permissions in this forum:
You cannot reply to topics in this forum