GHANA HACKERS
WELCOME TO YOUR WORLD OF FUN

Hansel and Gretel Witch Hunters 2013 TS Xvid

Go down

Hansel and Gretel Witch Hunters 2013 TS Xvid

Post by ADMIN on Wed Feb 27, 2013 10:39 am






Code:

Genre:Action | Fantasy | Horror
Language:English
IMDb:http://www.imdb.com/title/tt1428538/
Source:MiNiSTRY Thanks
Encoder:Tony

Format                                  : AVI
Format/Info                              : Audio Video Interleave
File size                                : 1.02 GiB
Duration                                : 1h 20mn
Overall bit rate                        : 1 818 Kbps

Video
ID                                      : 0
Format                                  : MPEG-4 Visual
Format profile                          : Advanced Simple@L5
Format settings, BVOP                    : 1
Format settings, QPel                    : No
Format settings, GMC                    : No warppoints
Format settings, Matrix                  : Default (H.263)
Codec ID                                : XVID
Codec ID/Hint                            : XviD
Duration                                : 1h 20mn
Bit rate                                : 1 646 Kbps
Width                                    : 640 pixels
Height                                  : 304 pixels
Display aspect ratio                    : 2.2:1
Frame rate                              : 29.970 fps
Color space                              : YUV
Chroma subsampling                      : 4:2:0
Bit depth                                : 8 bits
Scan type                                : Progressive
Compression mode                        : Lossy
Bits/(Pixel*Frame)                      : 0.282
Stream size                              : 945 MiB (91%)
Writing library                          : XviD 1.2.1 (UTC 2008-12-04)

Audio
ID                                      : 1
Format                                  : AC-3
Format/Info                              : Audio Coding 3
Mode extension                          : CM (complete main)
Codec ID                                : 2000
Duration                                : 1h 20mn
Bit rate mode                            : Constant
Bit rate                                : 160 Kbps
Channel(s)                              : 2 channels
Channel positions                        : Front: L R
Sampling rate                            : 48.0 KHz
Bit depth                                : 16 bits
Compression mode                        : Lossy
Stream size                              : 91.8 MiB (9%)
Alignment                                : Aligned on interleaves
Interleave, duration                    : 33 ms (1.00 video frame)
Interleave, preload duration            : 512 ms







Code:
SINGLE LINK
http://rapidgator.net/file/78077790/Hansel_and_Gretel_Witch_Hunters_2013_TS_Xvid_Feel-Free.avi.html

http://ul.to/5ak7yh9t


1GB LINK
http://rapidgator.net/file/78078278/hsg.part1.rar.html
http://rapidgator.net/file/78077793/hsg.part2.rar.html


http://uploaded.net/file/x840v7x3/hsg.part1.rar
http://uploaded.net/file/mts1fjfh/hsg.part2.rar


http://BillionUploads.com/jn12dotevs5d
http://BillionUploads.com/oo3dzf37n2j5


http://www.putlocker.com/file/D37F381D123E210D
http://www.putlocker.com/file/C548DC0B48039ECD


avatar
ADMIN
Admin

Posts : 118
Join date : 2012-11-23
Age : 28
Location : BURMA CAMP

View user profile http://ghhackers.4rumer.com

Back to top Go down

Back to top

- Similar topics

 
Permissions in this forum:
You cannot reply to topics in this forum