GHANA HACKERS
WELCOME TO YOUR WORLD OF FUN

[NL/EB/RG/UL] Jurassic Attack 2013 BRRip XviD Ac3 Feel-Free

Go down

[NL/EB/RG/UL] Jurassic Attack 2013 BRRip XviD Ac3 Feel-Free

Post by ADMIN on Thu Feb 07, 2013 12:23 pm

Jurassic Attack 2013 BRRip XviD Ac3 Feel-Free


Information:
Genre:Sci-Fi
Language:English
IMDb:http://www.imdb.com/title/tt2303110/
Source:1080p.BluRay.x264-EPHEMERiD Thanks
Encoder:Tony

Format : AVI
Format/Info : Audio Video Interleave
File size : 1.38 GiB
Duration : 1h 23mn
Overall bit rate : 2 367 Kbps

Video
ID : 0
Format : MPEG-4 Visual
Format profile : Advanced Simple@L5
Format settings, BVOP : 1
Format settings, QPel : No
Format settings, GMC : No warppoints
Format settings, Matrix : Default (H.263)
Codec ID : XVID
Codec ID/Hint : XviD
Duration : 1h 23mn
Bit rate : 1 974 Kbps
Width : 640 pixels
Height : 360 pixels
Display aspect ratio : 16:9
Frame rate : 23.976 fps
Color space : YUV
Chroma subsampling : 4:2:0
Bit depth : 8 bits
Scan type : Progressive
Compression mode : Lossy
Bits/(Pixel*Frame) : 0.357
Stream size : 1.15 GiB (83%)
Writing library : XviD 1.2.1 (UTC 2008-12-04)

Audio
ID : 1
Format : AC-3
Format/Info : Audio Coding 3
Mode extension : CM (complete main)
Codec ID : 2000
Duration : 1h 23mn
Bit rate mode : Constant
Bit rate : 384 Kbps
Channel(s) : 6 channels
Channel positions : Front: L C R, Side: L R, LFE
Sampling rate : 48.0 KHz
Bit depth : 16 bits
Compression mode : Lossy
Stream size : 229 MiB (16%)
Alignment : Aligned on interleaves
Interleave, duration : 42 ms (1.00 video frame)
Interleave, preload duration : 512 ms


Plot:
While returning from a military expedition a helicopter crash lands a commando unit in a dense, remote tropical jungle – a lost world populated by dinosaurs. Now they must find a way out of this isolated valley before becoming prey for prehistoric predators.

SCREENS:





Extabit.com
Code:
[You must be registered and logged in to see this link.]


Netload.in
Code:
[You must be registered and logged in to see this link.]


Uploaded.net
Code:
[You must be registered and logged in to see this link.]
[You must be registered and logged in to see this link.]


Rapidgator.net
Code:
[You must be registered and logged in to see this link.]
[You must be registered and logged in to see this link.]

avatar
ADMIN
Admin

Posts : 118
Join date : 2012-11-23
Age : 28
Location : BURMA CAMP

View user profile http://ghhackers.4rumer.com

Back to top Go down

Back to top

- Similar topics

 
Permissions in this forum:
You cannot reply to topics in this forum